Shakespeare and Hathaway S03 1080P RB58

seeders: 5
leechers: 13
updated:
Added by RedBaron58 in Other
Torrent reliable.


ᕦ( ▨̅ ͜▨̅ )ᕥ SPECIAL DEAL - OFFER ᕦ( ▨̅ ͜▨̅ )ᕥ
strongly advises you to use Nord while downloading torrents.
Nord is the safest on the market, and the fastest as well.
No IP Log is saved using Nord, avoid other providers and choose the safest one.
Click here and buy Nord it's on rebates today!
We were able to verify your IP: 18.206.194.161, country: United States and you are near by: Ashburn.
If we can do that, others can too, protect your privacy with Nord.
is trying the best for you!
ᕦ( ▨̅ ͜▨̅ )ᕥ SPECIAL DEAL - OFFER ᕦ( ▨̅ ͜▨̅ )ᕥ


Shakespeare and Hathaway S03 1080P RB58 Size: 9.6 GB (10307921510 Bytes)

Description

Shakespeare and Hathaway S03 1080P x264 mp4

https://www.imdb.com/title/tt7526498/
 
Thank you for your kind comments and feedback on my other torrents, your feedback is welcome.

About the Series:
Shakespeare & Hathaway: Private Investigators is a comedy drama set in the Bard’s birthplace
of Stratford-upon-Avon, where ex-detective Frank Hathaway (Mark Benton) and his business partner
Luella Shakespeare (Jo Joyner) run an unorthodox but highly-successful private detective service.

I hope you enjoy.

 

 

Technical:

General
Complete name : I:\Shakespeare and Hathaway S03\Shakespeare and Hathaway S03E01 - How the Rogue Roared 1080P x264 RB58.mp4
Format : MPEG-4
Format profile : Base Media
Codec ID : isom
File size : 1 002 MiB
Duration : 44mn 39s
Overall bit rate mode : Variable
Overall bit rate : 3 138 Kbps
Writing application : VideoReDo (Lavf57.71.100)

Video
ID : 1
Format : AVC
Format/Info : Advanced Video Codec
Format profile : [email protected] 
Format settings, CABAC : Yes
Format settings, ReFrames : 4 frames
Codec ID : avc1
Codec ID/Info : Advanced Video Coding
Duration : 44mn 39s
Bit rate : 3 000 Kbps
Width : 1 920 pixels
Height : 1 080 pixels
Display aspect ratio : 16:9
Frame rate mode : Constant
Frame rate : 25.000 fps
Color space : YUV
Chroma subsampling : 4:2:0
Bit depth : 8 bits
Scan type : MBAFF
Scan order : Top Field First
Bits/(Pixel*Frame) : 0.058
Stream size : 958 MiB (96%)
Writing library : x264 core 152 r2245
Encoding settings : cabac=1 / ref=2 / deblock=1:0:0

Audio
ID : 2
Format : AAC
Format/Info : Advanced Audio Codec
Format profile : LC
Codec ID : 40
Duration : 44mn 39s
Duration_LastFrame : -21ms
Bit rate mode : Variable
Bit rate : 125 Kbps
Maximum bit rate : 128 Kbps
Channel(s) : 2 channels
Channel positions : Front: L R
Sampling rate : 48.0 KHz
Compression mode : Lossy
Stream size : 40.1 MiB (4%)
Language : English

Sharing Widget


Download torrent
Size: 9.6 GB
seeders:5
leechers:13
Shakespeare and Hathaway S03 1080P RB58 - (10307921510 Bytes)



To share this torrent use the code below and insert it into comments, status messages, forum posts or your signature.

Torrent: Shakespeare and Hathaway S03 1080P RB58

Trackers

tracker name
udp://tracker.coppersurfer.tk:6969/announce
udp://tracker.leechers-paradise.org:6969/announce
udp://tracker.pirateparty.gr:6969/announce
udp://tracker.uw0.xyz:6969/announce
udp://tracker.torrent.eu.org:451/announce
udp://open.stealth.si:80/announce
udp://9.rarbg.com:2710/announce
udp://tracker.zer0day.to:1337/announce
udp://tracker.leechers-paradise.org:6969/announce
udp://coppersurfer.tk:6969/announce
µTorrent compatible trackers list

Locations

name
KickassTorrents
Torrent hash: F68A1EF27F6A53DB65625F89F4426640345BE238

ᕦ( ▨̅ ͜▨̅ )ᕥ SPECIAL DEAL - OFFER ᕦ( ▨̅ ͜▨̅ )ᕥ
strongly advises you to use Nord while downloading torrents.
Nord is the safest on the market, and the fastest as well.
No IP Log is saved using Nord, avoid other providers and choose the safest one.
Click here and buy Nord it's on rebates today!
We were able to verify your IP: 18.206.194.161, country: United States and you are near by: Ashburn.
If we can do that, others can too, protect your privacy with Nord.
is trying the best for you!
ᕦ( ▨̅ ͜▨̅ )ᕥ SPECIAL DEAL - OFFER ᕦ( ▨̅ ͜▨̅ )ᕥ


All Comments

*comments box temporarily disabled*
Report a bug